Puppy Linux Discussion Forum Forum Index Puppy Linux Discussion Forum
Puppy HOME page : puppylinux.com
"THE" alternative forum : puppylinux.info
 
 FAQFAQ   SearchSearch   MemberlistMemberlist   UsergroupsUsergroups   RegisterRegister 
 ProfileProfile   Log in to check your private messagesLog in to check your private messages   Log inLog in 

The time now is Mon 22 Apr 2019, 08:21
All times are UTC - 4
 Forum index » House Training » Users ( For the regulars )
TAS -TAS-1.13 Error in Execution? [SOLVED - UPDATE HERE]
Moderators: Flash, Ian, JohnMurga
Post new topic   Reply to topic View previous topic :: View next topic
Page 1 of 1 [3 Posts]  
Author Message
MrDuckGuy


Joined: 31 Jan 2019
Posts: 100
Location: Hermosa Beach, CA, USA

PostPosted: Sun 10 Mar 2019, 12:41    Post subject:  TAS -TAS-1.13 Error in Execution? [SOLVED - UPDATE HERE]
Subject description: Re: Take a Shot! - yet another screenshot utility...
 

SOLVED: UPDATE v1.14 link below. End of thread. B'H
===============================


SFR wrote:
... ffmpeg has such ability and it's already in many Puppies ...
Requirements: Bash, Gtkdialog, ffmpeg/avconv, xwininfo,
getcurpos, awk, tr, gifsicle (optional), xrectsel (optional)

I tested it in: Slacko-5.4 (Compiz) + briefly, using VBox, in
Slacko-5.4.0.3 (JWM), Lupu-528 (Openbox), Precise-5.4.2
(JWM) and Akita-14 (JWM/Xorg; ffmpeg segfaults with
XVesa). ... Fatdog64. ... I wrote this tool primarily for
myself ... can't guarantee it'll work flawlessly in all cases.
... Version 1.13: ... Have fun ...
I downloaded this from the link here:
http://www.murga-linux.com/puppy/viewtopic.php?p=686939
It initializes and the interface is operational. When I try to
capture an image, an error message appears:
Code:
avconv version 9.20-6:9.20-0ubuntu0.14.04.1, Copyright (c)
2000-2014 the Libav developers
   built on Dec  7 2016 21:27:42 with gcc 4.8 (Ubuntu
   4.8.4-2ubuntu1~14.04.3)
[x11grab @ 0x8b2f740] device: :0+616,72+nomouse ->
                  display: :0 x: 616 y: 72 width: 769 height: 478
[x11grab @ 0x8b2f740] shared memory extension  found
[x11grab @ 0x8b2f740] Estimating duration from bitrate,
                                          this may be inaccurate
Input #0, x11grab, from ':0+616,72+nomouse':
  Duration: N/A, start: 1552231029.616854, bitrate: 294065 kb/s
    Stream #0.0: Video: rawvideo, bgra, 769x478, 294065 kb/s,
                           1000k tbn, 25 tbc
Output #0, image2, to
                  '/mnt/sdb1/Images/03/10/19-1117-09-Screenshot.jpg':
  Metadata:
    encoder         : Lavf54.20.4
    Stream #0.0: Video: mjpeg, yuvj420p, 769x478, q=2-31,
                           200 kb/s, 90k tbn, 25 tbc
Stream mapping:
  Stream #0:0 -> #0:0 (rawvideo -> mjpeg)
Press ctrl-c to stop encoding
[image2 @ 0x8b3a240] Could not open file :
/mnt/sdb1/Images/03/10/19-1117-09-Screenshot.jpg
av_interleaved_write_frame(): Input/output error
Screenshots below.

The Puppy that's attempting to run this utility is Tahrpup32v6.0.6, which
is the most current version of Tahrpup32 to my (limited) knowledge. This
is installed to a frugal folder in an SSD.

Is this an example of user error, or is there a known issue
with this utility?

As always, thanks in advance, Kelikaku B'H.
          Acapture20179.png
           Description   Output from TAS1.13 error message logging function.
          See verbose text of output within this post above. B'H.
           Filesize   61.21 KB
           Viewed   116 Time(s)

          Acapture20179.png

          Acapture21408AX.png
           Description   Screenshot not taken. Something went wrong! B'H.
           Filesize   63.71 KB
           Viewed   116 Time(s)

          Acapture21408AX.png


          Last edited by MrDuckGuy on Mon 11 Mar 2019, 14:56; edited 2 times in total
          Back to top
          View user's profile Send private message 
          SFR


          Joined: 26 Oct 2011
          Posts: 1715

          PostPosted: Sun 10 Mar 2019, 13:52    Post subject:  

          I think I know what went wrong here.
          Did you use %D in filename?
          If so, it got evaluated to 03/10/19, which is an invalid filename, because it contains slashes.

          I fixed it in v1.14 by replacing slashes to underscores.

          Thanks for spotting this &
          Greetings!

          _________________
          [O]bdurate [R]ules [D]estroy [E]nthusiastic [R]ebels => [C]reative [H]umans [A]lways [O]pen [S]ource
          Omnia mea mecum porto.
          Back to top
          View user's profile Send private message 
          MrDuckGuy


          Joined: 31 Jan 2019
          Posts: 100
          Location: Hermosa Beach, CA, USA

          PostPosted: Mon 11 Mar 2019, 12:50    Post subject: Re: TAS TAS-1.13 Error in Execution? [SOLVED - UPDATE HERE]
          Subject description: Re: Take a Shot! - yet another screenshot utility...
           

          SFR wrote:
          ... I know what went wrong ... %D in filename ... got evaluated to 03/10/19, which is an invalid filename ... fixed it in v1.14 by replacing slashes ... Thanks for spotting this ...
          By golly if I didn't (use %D)!

          Thanks for your alacrity.

          So would there be a convenient repository with the updated version, by chance?
          =================================
          SOLVED:


          TASv1.14 link here.


          Thanks to SFR, so very much for the UP-DATE!


          B'H.
          2019-03-11-12-C256motherboard.png
           Description   Image of a Phoenix Project's C256 motherboard -
          which is a modern day throwback to the iconic
          and anachronistic Commodore 64. For reference
          and for the sake of consanguinity. B'H.
           Filesize   159.54 KB
           Viewed   11 Time(s)

          2019-03-11-12-C256motherboard.png

          Back to top
          View user's profile Send private message 
          Display posts from previous:   Sort by:   
          Page 1 of 1 [3 Posts]  
          Post new topic   Reply to topic View previous topic :: View next topic
           Forum index » House Training » Users ( For the regulars )
          Jump to:  

          You cannot post new topics in this forum
          You cannot reply to topics in this forum
          You cannot edit your posts in this forum
          You cannot delete your posts in this forum
          You cannot vote in polls in this forum
          You cannot attach files in this forum
          You can download files in this forum


          Powered by phpBB © 2001, 2005 phpBB Group
          [ Time: 0.0349s ][ Queries: 12 (0.0086s) ][ GZIP on ]